Sign Up   |   Sign In  
The ChiShoresySistasI Saw the TV GlowThe EgyptianBekasThe Bold and the BeautifulThe Big CigarYoung SheldonNotas sobre un veranoGoodbye Uncle TomThe PrestigeThe BoysWWE NXTWalkerMower MinionsBratsAssimilateEvilBridgertonCriminal MindsIn the Line of FireThe Artifice GirlLamp LifeThe Daily Show

Announcements

05/23

2024

1

Comments

FBI Most Wanted S05E13 Powderfinger 720p AMZN WEB-DL DDP5 1 H 264-NTb
[RR/NF/CU]
Size: 1.3GB mkv H264 (HIGH) / EAC3  HD  1280x720

FBI: Most Wanted
File Information
[img]http://lookpic.com/cdn/i2/t/0523202400492209-1.jpg[/img]
[img]http://lookpic.com/cdn/i2/t/0523202400492209-2.jpg[/img]
[img]http://lookpic.com/cdn/i2/t/0523202400492209-3.jpg[/img]

General
Unique ID                                : 263010897621179839578347074012068359804 (0xC5DE0E6C7CA930650A7A0A9AC942AE7C)
Complete name                            : FBI Most Wanted S05E13 Powderfinger 720p AMZN WEB-DL DDP5 1 H 264-NTb.mkv
Format                                   : Matroska
Format version                           : Version 4
File size                                : 1.33 GiB
Duration                                 : 42 min 39 s
Overall bit rate                         : 4 477 kb/s
Frame rate                               : 23.976 FPS
Writing application                      : mkvmerge v84.0 ('Sleeper') 64-bit
Writing library                          : libebml v1.4.5 + libmatroska v1.7.1

Video
ID                                       : 1
Format                                   : AVC
Format/Info                              : Advanced Video Codec
Format profile                           : [email protected]
Format settings                          : CABAC / 4 Ref Frames
Format settings, CABAC                   : Yes
Format settings, Reference frames        : 4 frames
Codec ID                                 : V_MPEG4/ISO/AVC
Duration                                 : 42 min 39 s
Bit rate mode                            : Constant
Bit rate                                 : 3 835 kb/s
Nominal bit rate                         : 6 000 kb/s
Width                                    : 1 280 pixels
Height                                   : 720 pixels
Display aspect ratio                     : 16:9
Frame rate mode                          : Constant
Frame rate                               : 23.976 (24000/1001) FPS
Color space                              : YUV
Chroma subsampling                       : 4:2:0
Bit depth                                : 8 bits
Scan type                                : Progressive
Bits/(Pixel*Frame)                       : 0.174
Stream size                              : 1.14 GiB (86%)
Default                                  : Yes
Forced                                   : No
Color range                              : Limited
Color primaries                          : BT.709
Transfer characteristics                 : BT.709
Matrix coefficients                      : BT.709

Audio
ID                                       : 2
Format                                   : E-AC-3
Format/Info                              : Enhanced AC-3
Commercial name                          : Dolby Digital Plus
Codec ID                                 : A_EAC3
Duration                                 : 42 min 39 s
Bit rate mode                            : Constant
Bit rate                                 : 640 kb/s
Channel(s)                               : 6 channels
Channel layout                           : L R C LFE Ls Rs
Sampling rate                            : 48.0 kHz
Frame rate                               : 31.250 FPS (1536 SPF)
Compression mode                         : Lossy
Stream size                              : 195 MiB (14%)
Language                                 : English (US)
Service kind                             : Complete Main
Default                                  : Yes
Forced                                   : No

Text #1
ID                                       : 3
Format                                   : UTF-8
Codec ID                                 : S_TEXT/UTF8
Codec ID/Info                            : UTF-8 Plain Text
Duration                                 : 41 min 37 s
Bit rate                                 : 89 b/s
Frame rate                               : 0.348 FPS
Count of elements                        : 870
Stream size                              : 27.2 KiB (0%)
Language                                 : English (US)
Default                                  : No
Forced                                   : No

Text #2
ID                                       : 4
Format                                   : UTF-8
Codec ID                                 : S_TEXT/UTF8
Codec ID/Info                            : UTF-8 Plain Text
Duration                                 : 42 min 33 s
Bit rate                                 : 91 b/s
Frame rate                               : 0.371 FPS
Count of elements                        : 947
Stream size                              : 28.4 KiB (0%)
Title                                    : SDH
Language                                 : English (US)
Default                                  : No
Forced                                   : No



Download
File Container: MKV
Video/Audio Codec: H264 (HIGH) EAC3
Video Resolution: 1280x720

1 Response to "[RR/NF/CU] FBI Most Wanted S05E13 Powderfinger 720p AMZN WEB-DL DDP5 1 H 264-NTb (1.3GB)"
05/23/24
01:30:47
ReadyPlayerOne

Thank you!

Please Login to post a comment.
If you don't have any account, please Register.
  • Subscribe my Feeds
  • Facebook
Encoding Queue:  x264  x265

Latest Episodes

Popular Movies and TV Shows

  • The Chi
  • Shoresy
  • Sistas
  • I Saw the TV Glow
  • The Egyptian
  • Bekas
  • The Bold and the Beautiful
  • The Big Cigar
  • Young Sheldon
  • Notas sobre un verano
  • Goodbye Uncle Tom
  • The Prestige
  • The Boys
  • WWE NXT
  • Walker
  • Mower Minions
  • Brats
  • Assimilate
  • Evil
  • Bridgerton
  • Criminal Minds
  • In the Line of Fire
  • The Artifice Girl
  • Lamp Life
  • The Daily Show

Recent Comments

Archives