Sign Up   |   Sign In  
S.W.A.T.Blue BloodsThe UnXplained Special PresentationThe Neighbors Are WatchingThe Real Line of DutyA Rose for Her Grave: The Randy Roth StoryFire CountryBeyond ParadiseArcadianTravel Man: 48 Hours in...Roommate RegretPure OFalloutSugarA Gentleman in MoscowDamagedLaRoy, TexasThe Greatest HitsFranklinYoung SheldonFBIParachuteUntitled Woody WoodpeckerFour Souls of CoyoteStar Trek: Discovery

Announcements

03/03

2024

No

Comments

Big Train COMPLETE S01 S02 10bit DVDRip x265-budgetbits
[RR/NF/CU]
Size: 1.5GB mkv HEVC (MAIN 10) / OPUS 702x574 TV Pack

Big Train
File Information
Big.Train.COMPLETE.10bit.DVDRip.x265-budgetbits
TV series, 2 seasons (1998-2002)

A British sketch comedy show where people in ordinary situations suddenly find themselves in absurd situations. Created by Graham Linehan and Arthur Matthews.

-----------

Encoded from DVD remux (Big.Train.S0[1-2].1998.DVD.MPEG-2.DD.2.0.REMUX-SJUNKiES) using HandBrake 1.3.1, tweaked slower preset, x265, 10 bit, CRF 26, nlmeans light (except S01E05 with CRF 28 and nlmeans strong), sao/strong-intra-smoothing/rect disabled, aq-mode 1.

Season 1 duplicate intros encoded as standalone file and cut from episodes 2 through 6.

Subtitles (SDH) from source, converted from sub/idx to srt at subconverter.com. Many OCR errors.

-----------

Sample mediainfo

General
Unique ID                                : 284884171558795993839186074044327598276 (0xD652B217581AB1F6C8B28F1F106D18C4)
Complete name                            : Big.Train.S01E01.10bit.DVDRip.x265-budgetbits.mkv
Format                                   : Matroska
Format version                           : Version 4
File size                                : 132 MiB
Duration                                 : 29 min 0 s
Overall bit rate                         : 639 kb/s
Frame rate                               : 25.000 FPS
Movie name                               : Big Train S01E01
Writing application                      : Lavf59.27.100
Writing library                          : Lavf59.27.100
ErrorDetectionType                       : Per level 1

Video
ID                                       : 1
Format                                   : HEVC
Format/Info                              : High Efficiency Video Coding
Format profile                           : Main 10@L3@Main
Codec ID                                 : V_MPEGH/ISO/HEVC
Duration                                 : 29 min 0 s
Bit rate                                 : 567 kb/s
Width                                    : 702 pixels
Height                                   : 576 pixels
Display aspect ratio                     : 4:3
Frame rate mode                          : Constant
Frame rate                               : 25.000 FPS
Color space                              : YUV
Chroma subsampling                       : 4:2:0
Bit depth                                : 10 bits
Bits/(Pixel*Frame)                       : 0.056
Stream size                              : 118 MiB (89%)
Writing library                          : x265 3.4:[Linux][GCC 9.3.0][64 bit] 10bit Encoding settings                        : cpuid=1111039 / frame-threads=1 / wpp / no-pmode / no-pme / no-psnr / no-ssim / log-level=2 / input-csp=1 / input-res=702x576 / interlace=0 / total-frames=0 / level-idc=0 / high-tier=1 / uhd-bd=0 / ref=4 / no-allow-non-conformance / no-repeat-headers / annexb / no-aud / no-hrd / info / hash=0 / no-temporal-layers / open-gop / min-keyint=25 / keyint=250 / gop-lookahead=0 / bframes=8 / b-adapt=2 / b-pyramid / bframe-bias=0 / rc-lookahead=30 / lookahead-slices=0 / scenecut=40 / hist-scenecut=0 / radl=0 / no-splice / no-intra-refresh / ctu=64 / min-cu-size=8 / no-rect / no-amp / max-tu-size=32 / tu-inter-depth=2 / tu-intra-depth=2 / limit-tu=4 / rdoq-level=2 / dynamic-rd=0.00 / no-ssim-rd / signhide / no-tskip / nr-intra=0 / nr-inter=0 / no-constrained-intra / no-strong-intra-smoothing / max-merge=3 / limit-refs=2 / limit-modes / me=3 / subme=3 / merange=57 / temporal-mvp / no-frame-dup / no-hme / weightp / weightb / no-analyze-src-pics / deblock=0:0 / no-sao / no-sao-non-deblock / rd=6 / selective-sao=0 / no-early-skip / rskip / no-fast-intra / no-tskip-fast / no-cu-lossless / b-intra / no-splitrd-skip / rdpenalty=0 / psy-rd=2.00 / psy-rdoq=1.00 / no-rd-refine / no-lossless / cbqpoffs=0 / crqpoffs=0 / rc=crf / crf=26.0 / qcomp=0.60 / qpstep=4 / stats-write=0 / stats-read=0 / ipratio=1.40 / pbratio=1.30 / aq-mode=1 / aq-strength=1.00 / cutree / zone-count=0 / no-strict-cbr / qg-size=32 / no-rc-grain / qpmax=69 / qpmin=0 / no-const-vbv / sar=255 / sar-width / : / sar-height=16:15 / overscan=0 / videoformat=5 / range=0 / colorprim=5 / transfer=1 / colormatrix=6 / chromaloc=0 / display-window=0 / cll=0,0 / min-luma=0 / max-luma=1023 / log2-max-poc-lsb=8 / vui-timing-info / vui-hrd-info / slices=1 / no-opt-qp-pps / no-opt-ref-list-length-pps / no-multi-pass-opt-rps / scenecut-bias=0.05 / hist-threshold=0.01 / no-opt-cu-delta-qp / no-aq-motion / no-hdr10 / no-hdr10-opt / no-dhdr10-opt / no-idr-recovery-sei / analysis-reuse-level=0 / analysis-save-reuse-level=0 / analysis-load-reuse-level=0 / scale-factor=0 / refine-intra=0 / refine-inter=0 / refine-mv=1 / refine-ctu-distorti / no-limit-sao / ctu-info=0 / no-lowpass-dct / refine-analysis-type=0 / copy-pic=1 / max-ausize-factor=1.0 / no-dynamic-refine / no-single-sei / no-hevc-aq / no-svt / no-field / qp-adaptation-range=1.00 / no-scenecut-aware-qpconformance-window-offsets / right=0 / bottom=0 / decoder-max-rate=0
Default                                  : Yes
Forced                                   : No
Color range                              : Limited
Color primaries                          : BT.601 PAL
Transfer characteristics                 : BT.709
Matrix coefficients                      : BT.601

Audio
ID                                       : 2
Format                                   : Opus
Codec ID                                 : A_OPUS
Duration                                 : 28 min 59 s
Bit rate                                 : 67.1 kb/s
Channel(s)                               : 2 channels
Channel layout                           : L R
Sampling rate                            : 48.0 kHz
Frame rate                               : 50.001 FPS (960 SPF)
Bit depth                                : 32 bits
Compression mode                         : Lossy
Delay relative to video                  : -14 ms
Stream size                              : 13.9 MiB (11%)
Title                                    : Stereo
Language                                 : English
Default                                  : Yes
Forced                                   : No

Text
ID                                       : 3
Format                                   : UTF-8
Codec ID                                 : S_TEXT/UTF8
Codec ID/Info                            : UTF-8 Plain Text
Duration                                 : 28 min 53 s
Bit rate                                 : 79 b/s
Frame rate                               : 0.212 FPS
Count of elements                        : 367
Stream size                              : 16.8 KiB (0%)
Title                                    : SDH
Language                                 : English
Default                                  : No
Forced                                   : No

Menu
00:00:00.007                             : Chapter 1
00:01:22.847                             : Chapter 2
00:01:52.847                             : Chapter 3
00:03:30.127                             : Chapter 4
00:04:45.727                             : Chapter 5
00:05:51.207                             : Chapter 6
00:06:11.447                             : Chapter 7
00:06:53.447                             : Chapter 8
00:07:18.967                             : Chapter 9
00:10:21.287                             : Chapter 10
00:10:49.927                             : Chapter 11
00:11:54.047                             : Chapter 12
00:13:04.927                             : Chapter 13
00:15:44.847                             : Chapter 14
00:16:46.447                             : Chapter 15
00:19:56.847                             : Chapter 16
00:20:48.527                             : Chapter 17
00:21:22.447                             : Chapter 18
00:23:32.767                             : Chapter 19
00:24:28.247                             : Chapter 20
Download
File Container: MKV
Video/Audio Codec: HEVC (MAIN 10) OPUS
Video Resolution: 702x574
Please Login to post a comment.
If you don't have any account, please Register.
  • Subscribe my Feeds
  • Facebook
Encoding Queue:  x264  x265

Latest Episodes

Popular Movies and TV Shows

  • S.W.A.T.
  • Blue Bloods
  • The UnXplained Special Presentation
  • The Neighbors Are Watching
  • The Real Line of Duty
  • A Rose for Her Grave: The Randy Roth Story
  • Fire Country
  • Beyond Paradise
  • Arcadian
  • Travel Man: 48 Hours in...
  • Roommate Regret
  • Pure O
  • Fallout
  • Sugar
  • A Gentleman in Moscow
  • Damaged
  • LaRoy, Texas
  • The Greatest Hits
  • Franklin
  • Young Sheldon
  • FBI
  • Parachute
  • Untitled Woody Woodpecker
  • Four Souls of Coyote
  • Star Trek: Discovery

Recent Comments

  • Qua4ratic:

    clicknupload link plz

  • ppoo:

    Please, can you add "Real Time with Bill Maher S22E11" ??

  • theahtisham:

    Kindly upload Ep. 3 and 4 as well.

  • Kudzu: Update on sound issue, File's codec info says stereo but is only a the left channel If I switch i...
  • Admin:

    kang
    Getting error while encoding, sorry

  • rambaldi70:

    sorry this release ok.
    but descripton is bad
    (Duration: 2h56m7s)

Archives